Autori Tema: True Grit 2010 SCR XViD - IMAGiNE  (Lexuar 2072 herë)

0 Anëtare dhe 1 Vizitor po shikojne kete teme.

Jashtë Linjë Confused

  • ne rritje..
  • **
  • Postime: 51
  • Popullariteti: 0
True Grit 2010 SCR XViD - IMAGiNE
« Me: Janar 01, 2011, 10:31:49 MD »


ID : 0
Format : MPEG-4 Visual
Format profile : Advanced Simple@L5
Format settings, BVOP : Yes
Format settings, QPel : No
Format settings, GMC : No warppoints
Format settings, Matrix : Default (H.263)
Muxing mode : Packed bitstream
Codec ID : XVID
Codec ID/Hint : XviD
Duration : 1h 50mn
Bit rate : 1 560 Kbps
Width : 720 pixels
Height : 304 pixels
Display aspect ratio : 2.35:1
Frame rate : 23.976 fps
Color space : YUV
Chroma subsampling : 4:2:0
Bit depth : 8 bits
Scan type : Progressive
Bits/(Pixel*Frame) : 0.297
Stream size : 1.20 GiB (89%)
Writing library : XviD 1.1.2 (UTC 2006-11-01)

Audio

ID : 1
Format : MPEG Audio
Format version : Version 1
Format profile : Layer 3
Codec ID : 55
Codec ID/Hint : MP3
Duration : 1h 50mn
Bit rate mode : Constant
Bit rate : 192 Kbps
Channel(s) : 2 channels
Sampling rate : 44.1 KHz
Stream size : 151 MiB (11%)
Alignment : Split accross interleaves
Interleave, duration : 42 ms (1.00 video frame)
Interleave, preload duration : 500 ms



http://www.filesonic.com/file/50624787/True.Grite.part1.rar
http://www.filesonic.com/file/50624789/True.Grite.part2.rar
http://www.filesonic.com/file/50624791/True.Grite.part3.rar
http://www.filesonic.com/file/50624793/True.Grite.part4.rar


http://www.filesonic.com/file/50802347/T.Gft.part1.rar
http://www.filesonic.com/file/50802349/T.Gft.part2.rar



Stone 2010 480p BRRip XviD AC3-ViSiON




Stone (2010) 480p BRRip XviD AC3-ViSiON
480p BRRip | AVI | English | 720x304 | XVID 1586kbps | AC3 5.1 384kbps | 1.46 GB
Subtitles: English, Arabic, Dutch
Genre: Drama | Thriller
IMDB:
Code: Select all
http://www.imdb.com/title/tt1423995/



http://www.fileserve.com/file/Ckx4BdY
http://www.fileserve.com/file/sk2PCS6
http://www.fileserve.com/file/NzP3aYb
http://www.fileserve.com/file/U6AtTFD

The Fighter 2010 SCREENER XViD-WBZ | 1 Link



HAPPY NEW YEAR!!!

WBZ presents:  The Fighter
------------------------------------------

Genre -  Biography | Drama | Sport
Year- 2010
IMDb Link - http://www.imdb.com/title/tt0964517/
Source - LL/IMAGINE-THANKS and happy new year my friends
Size   - 970 mb
Length    - 1h 51mn
Video    - XviD
Resolution   - 664 x 280/ 23.976023 fps
Audio Language  - English
Audio   - MP3  / 192 Kbps
Subs - N/A


Mark Wahlberg ... Mickey Ward
Christian Bale ... Dicky Eklund
Amy Adams ... Charlene Fleming
Melissa Leo ... Alice Ward
Mickey O'Keefe ... Himself
Jack McGee ... George Ward
Melissa McMeekin ... 'Little Alice' Eklund
Bianca Hunter ... Cathy 'Pork' Eklund
Erica McDermott ... Cindy 'Tar' Ecklund
Jill Quigg ... Donna Eklund Jaynes
Dendrie Taylor ... Gail 'Red Dog' Eckland

A look at the early years of boxer "Irish" Micky Ward and his brother who helped train him before going pro in the mid 1980s.
The Fighter, is a drama about boxer "Irish" Micky Ward's unlikely road to the world light welterweight title. His Rocky-like rise was shepherded by half-brother Dicky, a boxer-turned-trainer who rebounded in life after nearly being KO'd by drugs and crime.



http://hotfile.com/dl/93518571/ce44aea/The_Fighter_2010_SCREENER_XViD-WBZ.part1.rar.html
http://hotfile.com/dl/93518570/f940c32/The_Fighter_2010_SCREENER_XViD-WBZ.part2.rar.html
http://hotfile.com/dl/93518568/de53a6b/The_Fighter_2010_SCREENER_XViD-WBZ.part3.rar.html

http://www.filesonic.com/file/50804688/The Fighter 2010 SCREENER XViD-WBZ.part1.rar
http://www.filesonic.com/file/50804788/The Fighter 2010 SCREENER XViD-WBZ.part2.rar
http://www.filesonic.com/file/50804622/The Fighter 2010 SCREENER XViD-WBZ.part3.rar

http://www.easy-share.com/1913444236/The Fighter 2010 SCREENER XViD-WBZ.part1.rar
http://www.easy-share.com/1913444239/The Fighter 2010 SCREENER XViD-WBZ.part2.rar
http://www.easy-share.com/1913444238/The Fighter 2010 SCREENER XViD-WBZ.part3.rar

http://www.fileserve.com/file/8DHH8Z3/The Fighter 2010 SCREENER XViD-WBZ.part1.rar
http://www.fileserve.com/file/QrJyxsb/The Fighter 2010 SCREENER XViD-WBZ.part2.rar
http://www.fileserve.com/file/5ETZ8aQ/The Fighter 2010 SCREENER XViD-WBZ.part3.rar